» » Странная ночь / Night of Something Strange (2016) Скачать торрент

 

Странная ночь / Night of Something Strange (2016) Скачать торрент

10 Странная ночь / Night of Something Strange (2016) Скачать торрент
Страны: США
Год создания: 2016
Слоган / Лозунг: «Don't forget your rubbers...and bazooka!»
Режиссер: Джонатан Стрейтон
Главный продюсер: Бри Стрейтон, Рон Бонк, Джон М. Кларк
Сценарист: Джонатан Стрейтон, Рон Бонк, Мин Джин
Работа с камерой: Rex Femscared
Музыкальное оформление: Пол Амос
Категория / Жанр: ужасы
Актерский состав: Trey Harrison, Rebecca C. Kasek, Уэйн В. Джонсон, Майкл Мерчант, Тони Энн Гэмбэйл, Николя Фиоре, John Walsh, Джанет Мэйсон, Tarrence Taylor, Кера О’Брайон
Премьера в мире: 8 апреля 2016


Сюжет кинофильма: Странная ночь (2016)


Что могут делать пятеро тинейджеров на пляже? Конечно же отдыхать и веселиться. По крайней мере на это расчитывали сами друзья. Но по дороге к пляжу девушка решила воспользоваться туалетом в придорожном кафе. Ее даже не смутил его внешний вид. Это оказалось фатальной ошибкой. Ведь она подцепила ужасный вирус, который сделал из нее настоящего монстра. Но ее друзья узнали об этом уже слишком поздно. Вирус начал распространяться слишком быстро, превращая всех вокруг в живых мертвецов. Борьба за выживание становится не шуточной...

Странная ночь / Night of Something Strange (2016) Скачать торрент



Скачать торрентом: Странная ночь / Night of Something Strange (2016) HDRip
Перевод / Озвучка: Профессиональный двухголосый - 2D
Время / Продолжительность фильма: 01:37:48
Информация о видео-файле:
Формат: AVI
Видео: XviD, 1719 Кбит/с, 720x400
Аудио: Русский (АС3, 2 ch, 128 Кбит/с)
Скачать фильм, бесплатно с торрента, без регистрации:
'Скачать
Размер: 1.27 GB

Размер: 755 МБ



Скачать торрентом: Странная ночь / Night of Something Strange (2016) BDRip 1080p
Перевод / Озвучка: Профессиональный двухголосый - 2D
Время / Продолжительность фильма: 01:37:28
Информация о видео-файле:
Формат: MKV
Видео: 1920x1080, 8654 kbps, 23,976 fps
Аудио 1: AC-3, 2 ch, 192 kbps (Rus) - DeadSno & den904
Аудио 2: AC-3, 6 ch, 640 kbps (Rus) - RussianGuy27
Аудио 3: AC-3, 2 ch, 192 kbps (Rus) - Xixidok
Аудио 4: AC-3, 6 ch, 640 kbps (Eng)
Субтитры: английские
Скачать фильм, бесплатно с торрента, без регистрации:
'Скачать
Размер: 7.61 GB


Теги:



Категория: Фильмы торрент / Ужасы

О достопочтенный господин - жа, простите за наше нахальство, но вам придётся потратить некоторое время
на регистрацию чтобы вы смогли изложить своё великое слово в данной статье.
  1. <
    • 18 комментариев
    • 0 публикаций
    • -2
    23 декабря 2016 15:00

    Hestin

    • Группа: Посетители
    • Регистрация: 11.01.2014
    • Статус: Пользователь offline
     
    Приличный сайт,а лажу гоните. Тех. данные пишите в соответствии раздаваемому торрент файлу.
    Это Ваш:
    Видео: XviD, 1835 Kb/s, 720x400
    Аудио: AC3, 384 Kb/s (6 ch)

    А это по факту:
    Общее
    Полное имя : E:\Интернет\Night of Something Strange (2016) WEB-DLRip\Night.of.Something.Strange.2016.WEB-DLRip.avi
    Формат : AVI
    Формат/Информация : Audio Video Interleave
    Профиль формата : OpenDML
    Размер файла : 1,39 Гбайт
    Продолжительность : 1 ч. 37 м.
    Общий поток : 2035 Кбит/сек
    Программа кодирования : XviD4PSP 6.0 / 54.29.105

    Видео
    Идентификатор : 0
    Формат : xvid
    Идентификатор кодека : xvid
    Продолжительность : 1 ч. 37 м.
    Битрейт : 1831 Кбит/сек
    Ширина : 720 пикселей
    Высота : 400 пикселей
    Соотношение сторон : 16:9
    Частота кадров : 23,976 кадра/сек
    Бит/(Пиксели*Кадры) : 0.265
    Размер потока : 1,25 Гбайт (90%)

    Аудио
    Идентификатор : 1
    Формат : AC-3
    Формат/Информация : Audio Coding 3
    Расширение режима : CM (complete main)
    Параметр Endianness формата : Big
    Идентификатор кодека : 2000
    Продолжительность : 1 ч. 37 м.
    Вид битрейта : Постоянный
    Битрейт : 192 Кбит/сек
    Каналы : 2 канала
    Расположение каналов : Front: L R
    Частота : 44,1 КГц
    Битовая глубина : 16 бит
    Метод сжатия : С потерями
    Размер потока : 134 Мбайт (9%)
    Выравнивание : Соединение по промежуткам
    Продолжительность промежутка : 35 мс. (0,84 видеокадр)

  2. <
    • 34 комментария
    • 0 публикаций
    • -1
    23 декабря 2016 17:18

    alexey0808

    • Группа: Посетители
    • Регистрация: 19.09.2014
    • Статус: Пользователь offline
     
    shalunfgh как будто у нас в городе в общественном туалете побывала, там не только заразу подцепишь, но и по моему нло утонуло... unitazsh

  3. <
    • 81 комментарий
    • 0 публикаций
    • -3
    23 декабря 2016 20:33

    woolfrik76

    • Группа: Друзья сайта
    • Регистрация: 25.11.2015
    • Статус: Пользователь offline
     
    судя по трейлеру фильм напрочь пропитанный сексизмом.

  4. <
    • 242 комментария
    • 0 публикаций
    • -2
    23 декабря 2016 22:28

    MeD

    • Группа: Друзья сайта
    • Регистрация: 3.06.2015
    • Статус: Пользователь offline
     
    Просто мерзость! фу фу фу

  5. <
    • 93 комментария
    • 0 публикаций
    • -1
    24 декабря 2016 23:17

    Shapeshifter

    • Группа: Друзья сайта
    • Регистрация: 26.07.2016
    • Статус: Пользователь offline
     
    Трейлер не видел. Фильм настолько плохой, что даже не смешно. Притом, что я никогда не считал себя сильно привередливым зрителем.

    Хотя, может кому-то гейнекропорно и понравится, вон аж два человека палец вверх нажали. Надеюсь, что у них просто руки с бодуна тряслись, и они промахнулись.

  6. <
    • 1 комментарий
    • 0 публикаций
    • -1
    25 декабря 2016 11:46

    veto

    • Группа: Посетители
    • Регистрация: 27.11.2016
    • Статус: Пользователь offline
     
    этот ШЕДЕВР надо было назвать "Сранная ночь"

  7. <
    • 164 комментария
    • 0 публикаций
    • -1
    21 января 2017 23:31

    Solitary_NAT

    • Группа: Друзья сайта
    • Регистрация: 29.10.2014
    • Статус: Пользователь offline
     
    Спасибо что есть трайлеры которые показывают фильм за 2 минуты.

  8. <
    • 303 комментария
    • 0 публикаций
    • -1
    22 января 2017 03:52

    Ex_Dimon

    • Группа: Друзья сайта
    • Регистрация: 12.09.2015
    • Статус: Пользователь offline
     
    Схожила в парашу и там подхватила вирус...сюжет говорит сам за себя ,дальше можно не продолжать.

  9. <
    • 1 422 комментария
    • 0 публикаций
    • -1
    24 января 2017 16:39

    Craiton

    • Группа: Эксперт
    • Регистрация: 23.12.2014
    • Статус: Пользователь offline
     
    Народ это тупо банальный треш, что вы от него хотите от этого фильма.

    1. <
      • 93 комментария
      • 0 публикаций
      • 0
      24 января 2017 16:42

      Shapeshifter

      • Группа: Друзья сайта
      • Регистрация: 26.07.2016
      • Статус: Пользователь offline
       
      Треш и идиотизм это разные вещи)) Я люблю треш, коим этот фильм не является))

Информация
Посетители, находящиеся в группе Гости, не могут оставлять комментарии к данной публикации.